بزرگترین انجمن کشتی کج ایران   ایران یو افــ سی
محل تبلیغات شما wwepars

User Tag List

نمایش نتایج: از شماره 1 تا 3 , از مجموع 3

موضوع: .:: جدیدترین آهنگ های ترنس و دنس خارجی ::.

  1. Top | #1

     کاربر سه ستاره  کاربر سه ستاره  کاربر سه ستارهکاربر سه ستاره کاربر سه ستاره

    عنوان کاربر
    مالک انجمن
    تاریخ عضویت
    May 2012
    شماره عضویت
    30977
    نوشته ها
    2,250
    تشکر
    9,427
    تشکر شده 12,759 بار در 2,147 ارسال
    نوشته های وبلاگ
    36
    Mentioned
    2 Post(s)
    Tagged
    1824 Thread(s)

    پیش فرض .:: جدیدترین آهنگ های ترنس و دنس خارجی ::.



    .:: دانلود آهنگ جدید One Night Stand Tonight از Twiins Ft. Flo Rida ::.







    کد PHP:
    File Name Twiins FtFlo Rida One Night Stand Tonight
    Format 
    Mp3
    Size 
    3 MB
    Server 
    TrainBit
    Tag 
    02.IRANWWE.BIZ 



    [برای مشاهده لینک ها شما باید عضو سایت باشید برای عضویت در سایت بر روی اینجا کلیک بکنید]
    7 کاربر مقابل از MrHOF عزیز به خاطر این پست مفید تشکر کرده اند. DEAD MAN (02-22-2013), E.H.S.A.N (02-22-2013), El Niño (06-21-2013), Moji (02-22-2013), SHAHIN (06-07-2013), Sgt.Wollek (02-22-2013), amir-aghaei (02-23-2013)

  2. Top | #2

     کاربر سه ستاره  کاربر سه ستاره  کاربر سه ستارهکاربر سه ستاره کاربر سه ستاره

    عنوان کاربر
    مالک انجمن
    تاریخ عضویت
    May 2012
    شماره عضویت
    30977
    نوشته ها
    2,250
    تشکر
    9,427
    تشکر شده 12,759 بار در 2,147 ارسال
    نوشته های وبلاگ
    36
    Mentioned
    2 Post(s)
    Tagged
    1824 Thread(s)

    پیش فرض



    .:: دانلود آهنگ جدید Tiesto با همراهی Kyler England به نام Take Me ::.







    کد:
    Format                                   : MPEG Audio
    File size                                : 5.63 MiB
    Duration                                 : 6mn 1s
    Overall bit rate mode                    : Constant
    Overall bit rate                         : 128 Kbps
    Album                                    : [WWW.IRANWWE.IN]
    Album/Performer                          : [WWW.IRANWWE.IN]
    Grouping                                 : [WWW.IRANWWE.IN]
    Performer                                : [WWW.IRANWWE.IN]
    Original/Performer                       : [WWW.IRANWWE.IN]
    Composer                                 : [WWW.IRANWWE.IN]
    Genre                                    : [WWW.IRANWWE.IN]
    Recorded date                            : 2013
    Writing library                          : LAME3.99r
    Copyright                                : [WWW.IRANWWE.IN]
    Cover                                    : Yes
    Cover type                               : Cover (front)
    Cover MIME                               : image/jpg
    Lyrics                                   : [WWW.IRANWWE.IN]
    Comment                                  : [WWW.IRANWWE.IN]
    URL                                      : [WWW.IRANWWE.IN]
    
    Audio
    Format                                   : MPEG Audio
    Format version                           : Version 1
    Format profile                           : Layer 3
    Mode                                     : Joint stereo
    Mode extension                           : MS Stereo
    Duration                                 : 6mn 2s
    Bit rate mode                            : Constant
    Bit rate                                 : 128 Kbps
    Channel(s)                               : 2 channels
    Sampling rate                            : 44.1 KHz
    Compression mode                         : Lossy
    Stream size                              : 5.51 MiB (98%)
    Writing library                          : LAME3.99r
    Encoding settings                        : -m j -V 4 -q 3 -lowpass 17 -b 128




    [برای مشاهده لینک ها شما باید عضو سایت باشید برای عضویت در سایت بر روی اینجا کلیک بکنید]
    4 کاربر مقابل از MrHOF عزیز به خاطر این پست مفید تشکر کرده اند. DEAD MAN (06-07-2013), El Niño (06-21-2013), SHAHIN (06-07-2013), amir-aghaei (06-21-2013)

  3. Top | #3

     کاربر سه ستاره  کاربر سه ستاره  کاربر سه ستارهکاربر سه ستاره کاربر سه ستاره

    عنوان کاربر
    مالک انجمن
    تاریخ عضویت
    May 2012
    شماره عضویت
    30977
    نوشته ها
    2,250
    تشکر
    9,427
    تشکر شده 12,759 بار در 2,147 ارسال
    نوشته های وبلاگ
    36
    Mentioned
    2 Post(s)
    Tagged
    1824 Thread(s)

    پیش فرض



    .:: دانلود آهنگ جدید Tiesto با همراهی Tab به نام Compromise ::.







    کد:
    Format                                   : MPEG Audio
    File size                                : 13.5 MiB
    Duration                                 : 5mn 49s
    Overall bit rate mode                    : Constant
    Overall bit rate                         : 320 Kbps
    Album                                    : [WWW.IRANWWE.IN]
    Album/Performer                          : [WWW.IRANWWE.IN]
    Grouping                                 : [WWW.IRANWWE.IN]
    Performer                                : [WWW.IRANWWE.IN]
    Original/Performer                       : [WWW.IRANWWE.IN]
    Composer                                 : [WWW.IRANWWE.IN]
    Genre                                    : [WWW.IRANWWE.IN]
    Recorded date                            : 2013
    Writing library                          : LAME3.99r
    Copyright                                : [WWW.IRANWWE.IN]
    Cover                                    : Yes
    Cover type                               : Cover (front)
    Cover MIME                               : image/jpg
    Lyrics                                   : [WWW.IRANWWE.IN]
    Comment                                  : [WWW.IRANWWE.IN]
    URL                                      : [WWW.IRANWWE.IN]
    
    Audio
    Format                                   : MPEG Audio
    Format version                           : Version 1
    Format profile                           : Layer 3
    Mode                                     : Joint stereo
    Mode extension                           : MS Stereo
    Duration                                 : 5mn 49s
    Bit rate mode                            : Constant
    Bit rate                                 : 320 Kbps
    Channel(s)                               : 2 channels
    Sampling rate                            : 48.0 KHz
    Compression mode                         : Lossy
    Stream size                              : 13.3 MiB (99%)
    Writing library                          : LAME3.99r
    Encoding settings                        : -m j -V 4 -q 9 -lowpass 16




    [برای مشاهده لینک ها شما باید عضو سایت باشید برای عضویت در سایت بر روی اینجا کلیک بکنید]
    5 کاربر مقابل از MrHOF عزیز به خاطر این پست مفید تشکر کرده اند. DEAD MAN (06-21-2013), El Niño (06-21-2013), Enliven (06-21-2013), Ghost OF Sparta (06-21-2013), amir-aghaei (06-21-2013)

اطلاعات موضوع

کاربرانی که در حال مشاهده این موضوع هستند

در حال حاضر 1 کاربر در حال مشاهده این موضوع است. (0 کاربران و 1 مهمان ها)

موضوعات مشابه

  1. .:: جدیدترین آلبوم های پاپ خارجی ::.
    توسط MrHOF در انجمن موزیک خارجی
    پاسخ ها: 22
    آخرين نوشته: 12-13-2013, 08:26 PM
  2. |موزیـــک| .:: جدیدترین موزیک ویدئو های خارجی ::.
    توسط MrHOF در انجمن موزیک خارجی
    پاسخ ها: 9
    آخرين نوشته: 08-01-2013, 03:19 PM
  3. .:: جدیدترین موزیک های ترنس و دنس ::.
    توسط MrHOF در انجمن ترنس و دنس
    پاسخ ها: 0
    آخرين نوشته: 01-22-2013, 03:17 PM
  4. مگاپست : 100 آهنگ برتر تاريخ در سبك ترنس و دنس !
    توسط Xtreme در انجمن اخبار موزیک خارجی
    پاسخ ها: 0
    آخرين نوشته: 01-02-2011, 11:52 AM
  5. دانلود جدیدترین آهنگ رپ خارجی ( آپدیت )
    توسط The LasT MaN در انجمن اخبار موزیک خارجی
    پاسخ ها: 1
    آخرين نوشته: 06-15-2010, 07:16 PM

علاقه مندی ها (Bookmarks)

علاقه مندی ها (Bookmarks)

مجوز های ارسال و ویرایش

  • شما نمیتوانید موضوع جدیدی ارسال کنید
  • شما امکان ارسال پاسخ را ندارید
  • شما نمیتوانید فایل پیوست کنید.
  • شما نمیتوانید پست های خود را ویرایش کنید
  •  
© تمامی حقوق برای ایران دبلیو دبلیو ای محفوظ بوده و هرگونه کپی برداري از محتوای انجمن پيگرد قانونی دارد